1. WE ARE MOVING: DESIRELEASERS.COM CLOSING SOON. WE ARE MOVING TO A NEW AND IMPROVED SITE. https://desireleasers.be/login USE THE SAME USER NAME AND PASS TO LOGIN. IF YOU FIND DIFFICULTY TO LOGIN RESET THE PASS AND CHECK YOUR EMAIL SPAM FOLDER. SEE YOU THERE

  2. BONUS SYSTEM: USE OUR BONUS SYSTEM TO BUY UPLOAD CREDIT. SEED YOUR TORRENTS AS LONG AS POSSIBLE AND GET BONUS POINTS

    Dismiss Notice
  1. MBRHDRG

    MBRHDRG Well-Known Member
    DRG LOYAL Desi Uploader DRG FAN

    Joined:
    May 20, 2016
    Messages:
    686
    Likes Received:
    514
    Uploaded:
    32.2 TB
    Downloaded:
    544 GB
    Ratio:
    60.61
    [​IMG]
    Title: Kodi (2016)

    Genre: Romance, Action, Drama

    Director: R. S. Durai Senthilkumar

    Cast: Dhanush, Trisha Krishnan, Anupama Parameswaran, Saranya Ponvannan, G. Marimuthu, Kaali Venkat, Raja Simman, S. A. Chandrasekhar, Vijayakumar, Namo Narayanan, Karunas, Swaminathan, Anil Murali, Raj Kapoor

    Release Date:

    Runtime: 145

    Plot: A young politician finds himself in a position where he has to contest against his girlfriend, who is ambitious. Circumstances force his look-alike twin to also get involved in this political battle.


    Format : Matroska
    Format version : Version 2
    File size : 2.00 GiB
    Duration : 2 h 19 min
    Overall bit rate : 2 054 kb/s
    Video
    ID : 1
    Format : AVC
    Format/Info : Advanced Video Codec
    Format profile : [email protected]
    Format settings, CABAC : Yes
    Format settings, ReFrames : 4 frames
    Codec ID : V_MPEG4/ISO/AVC
    Duration : 2 h 18 min
    Bit rate : 1 805 kb/s
    Width : 1 920 pixels
    Height : 816 pixels
    Display aspect ratio : 2.35:1
    Frame rate mode : Constant
    Frame rate : 24.000 FPS
    Color space : YUV
    Chroma subsampling : 4:2:0
    Bit depth : 8 bits
    Scan type : Progressive
    Bits/(Pixel*Frame) : 0.048
    Stream size : 1.75 GiB (87%)
    Audio
    ID : 2
    Format : AAC
    Format/Info : Advanced Audio Codec
    Format profile : LC
    Codec ID : A_AAC
    Duration : 2 h 18 min
    Bit rate : 256 kb/s
    Channel(s) : 6 channels
    Channel positions : Front: L C R, Side: L R, LFE
    Sampling rate : 48.0 kHz
    Frame rate : 46.875 FPS (1024 spf)
    Compression mode : Lossy
    Delay relative to video : 9 ms
    Stream size : 253 MiB (12%)
    Title : MBRHDRG
    Language : Tamil
    Default : Yes
    Forced : No

    [​IMG]

    [​IMG]

    [​IMG]

    [​IMG]

    [​IMG]
     
    Kodi (2016) Tamil WebRip 1080p x264 AAC 5.1 E-Sub-MBRHDRG.torrent
    (160.1 KB, 91 Views, Size: 2 GB, Seeders: 1, Leechers: 0, completed: 42) Freeleech
    • Created With:
      ruTorrent (PHP Class - Adrien Gibrat)
      Comment:
      No comment for this torrent
      Peers:
      1 seeders + 0 leechers = 1 peers
      Last Announce:
      Feb 18, 2019
    • Loading...
  2. Sidha

    Sidha Member
    DRG LOYAL DRG FAN

    Joined:
    Sep 30, 2016
    Messages:
    135
    Likes Received:
    3
    Uploaded:
    179.7 GB
    Downloaded:
    142.5 GB
    Ratio:
    1.26
    Thanks brooooiii! Happy Christmas.
     
  3. ragithkumar653

    Joined:
    Dec 8, 2016
    Messages:
    31
    Likes Received:
    0
    Uploaded:
    2.1 GB
    Downloaded:
    18.1 GB
    Ratio:
    0.12
    thankz 4 share
     
  4. Krishna-Appu

    Krishna-Appu Member
    DRG LOYAL DRG FAN

    Joined:
    Jul 23, 2016
    Messages:
    430
    Likes Received:
    8
    Uploaded:
    169.9 GB
    Downloaded:
    228.3 GB
    Ratio:
    0.74
    Thanks for the share.
     
  5. Shaikhere

    Shaikhere DRG FAN
    DRG FAN

    Joined:
    May 27, 2016
    Messages:
    99
    Likes Received:
    5
    Uploaded:
    62.9 GB
    Downloaded:
    50.2 GB
    Ratio:
    1.25
    Wish u nd whole Desi releasers friends merry xmas...

    Plz achcham embathu...
     
  6. cyberinx

    cyberinx Member
    DRG LOYAL DRG FAN

    Joined:
    Aug 19, 2016
    Messages:
    171
    Likes Received:
    2
    Uploaded:
    82 GB
    Downloaded:
    141.1 GB
    Ratio:
    0.58
    Thanks for the share.
     
  7. Shijith

    Shijith Well-Known Member
    DRG LOYAL DRG FAN

    Joined:
    Jul 22, 2016
    Messages:
    196
    Likes Received:
    10
    Uploaded:
    6.5 TB
    Downloaded:
    65.1 GB
    Ratio:
    101.85
    Thanks mbrhdrg
     
  8. Sriram BS

    Sriram BS Guest

    Thanks for the upload. Happy Christmas.
     
  9. Anoob

    Anoob Member
    DRG LOYAL DRG FAN

    Joined:
    Jul 26, 2016
    Messages:
    167
    Likes Received:
    5
    Uploaded:
    334.5 GB
    Downloaded:
    102.9 GB
    Ratio:
    3.25
    thanks for the share...
     
  10. Roshan Raj

    Roshan Raj Member
    DRG LOYAL DRG FAN

    Joined:
    Oct 9, 2016
    Messages:
    172
    Likes Received:
    2
    Uploaded:
    45.5 GB
    Downloaded:
    140.8 GB
    Ratio:
    0.32
    hope this is a nice movie...
     
  11. mobileasisst

    mobileasisst DRG FAN
    DRG FAN

    Joined:
    Sep 24, 2016
    Messages:
    83
    Likes Received:
    2
    Uploaded:
    490.9 GB
    Downloaded:
    75.8 GB
    Ratio:
    6.48
    thanks a lot for kodi
     
  12. Aghosh mathew

    Aghosh mathew Active Member
    DRG LOYAL DRG FAN

    Joined:
    Oct 19, 2016
    Messages:
    132
    Likes Received:
    1
    Uploaded:
    14.5 GB
    Downloaded:
    69 GB
    Ratio:
    0.21
    thanks good quality
     
  13. x264

    x264 Member

    Joined:
    Sep 26, 2016
    Messages:
    175
    Likes Received:
    2
    Uploaded:
    285.5 GB
    Downloaded:
    155.3 GB
    Ratio:
    1.84
    thanks..........
     
  14. crazyuser10

    crazyuser10 Guest

    thanks good quality..........
     
  15. anilraju

    anilraju Member

    Joined:
    Sep 26, 2016
    Messages:
    29
    Likes Received:
    0
    Uploaded:
    1.3 GB
    Downloaded:
    7 GB
    Ratio:
    0.19
    thankssssssss 4 share
     
  16. Indrajit K

    Indrajit K Guest

    thanx 4 the upload...
     
  17. pk123

    pk123 Member
    DRG LOYAL DRG FAN

    Joined:
    Jul 18, 2016
    Messages:
    159
    Likes Received:
    2
    Uploaded:
    129.2 GB
    Downloaded:
    99.7 GB
    Ratio:
    1.30
    thanks a lot ..
     

Share This Page

Movie information in first post provided by The Movie Database