1. WE ARE MOVING: DESIRELEASERS.COM CLOSING SOON. WE ARE MOVING TO A NEW AND IMPROVED SITE. https://desireleasers.be/login USE THE SAME USER NAME AND PASS TO LOGIN. IF YOU FIND DIFFICULTY TO LOGIN RESET THE PASS AND CHECK YOUR EMAIL SPAM FOLDER. SEE YOU THERE

  2. BONUS SYSTEM: USE OUR BONUS SYSTEM TO BUY UPLOAD CREDIT. SEED YOUR TORRENTS AS LONG AS POSSIBLE AND GET BONUS POINTS

    Dismiss Notice
  1. MBRHDRG

    MBRHDRG Well-Known Member
    DRG LOYAL Desi Uploader DRG FAN

    Joined:
    May 20, 2016
    Messages:
    686
    Likes Received:
    514
    Uploaded:
    32.2 TB
    Downloaded:
    544 GB
    Ratio:
    60.61
    Rating: 3.67/5 - 3 Votes
    [​IMG]
    Title: Ghajinikanth (2018)

    Genre: Family, Comedy, Romance

    Director: Santhosh P. Jayakumar

    Cast: Arya, Sayesha Saigal, Sathish, Karunakaran, Rajendran, Jangiri Madhumitha, Sampath Raj, Adukalam Naren, Uma Padmanabhan, Mukul Dev, Kaali Venkat, Balaji Patturaj, Rekha Suresh

    Release Date:

    Runtime: 147

    Plot: A forgetful young man falls in love with a girl whose father hates his condition.




    Format : Matroska
    Format version : Version 2
    File size : 2.00 GiB
    Duration : 2 h 17 min
    Overall bit rate : 2 075 kb/s
    Video
    ID : 1
    Format : AVC
    Format/Info : Advanced Video Codec
    Format profile : [email protected]
    Format settings : CABAC / 4 Ref Frames
    Format settings, CABAC : Yes
    Format settings, RefFrames : 4 frames
    Codec ID : V_MPEG4/ISO/AVC
    Duration : 2 h 17 min
    Bit rate : 1 817 kb/s
    Width : 1 920 pixels
    Height : 816 pixels
    Display aspect ratio : 2.35:1
    Frame rate mode : Constant
    Frame rate : 24.000 FPS
    Color space : YUV
    Chroma subsampling : 4:2:0
    Bit depth : 8 bits
    Scan type : Progressive
    Bits/(Pixel*Frame) : 0.048
    Stream size : 1.75 GiB (88%)
    Audio
    ID : 2
    Format : AAC
    Format/Info : Advanced Audio Codec
    Format profile : LC
    Codec ID : A_AAC-2
    Duration : 2 h 17 min
    Bit rate : 256 kb/s
    Channel(s) : 6 channels
    Channel positions : Front: L C R, Side: L R, LFE
    Sampling rate : 48.0 kHz
    Frame rate : 46.875 FPS (1024 SPF)
    Compression mode : Lossy
    Delay relative to video : 9 ms
    Stream size : 252 MiB (12%)
    Title : MBRHDRG
    Language : Tamil
    Default : Yes
    Forced : No
    [​IMG]
    [​IMG]
    [​IMG]
    [​IMG]
    [​IMG]
     
    Ghajinikanth (2018) Tamil WebRip 1080p x264 AAC 5.1 E-Sub-MBRHDRG.torrent
    (160.1 KB, 16 Views, Size: 2 GB, Seeders: 1, Leechers: 0, completed: 6) Freeleech
    • Created With:
      ruTorrent (PHP Class - Adrien Gibrat)
      Comment:
      No comment for this torrent
      Peers:
      1 seeders + 0 leechers = 1 peers
      Last Announce:
      Feb 18, 2019
    • Loading...
  2. shibu kc

    shibu kc Active Member
    DRG LOYAL DRG FAN

    Joined:
    Nov 30, 2017
    Messages:
    237
    Likes Received:
    50
    Uploaded:
    1.2 TB
    Downloaded:
    46.5 GB
    Ratio:
    25.37
    Good share mbrhdrg and thanks for sharing this rip
     
  3. Razer_cortex

    Razer_cortex Well-Known Member
    DRG LOYAL DRG FAN

    Joined:
    Oct 29, 2016
    Messages:
    280
    Likes Received:
    20
    Uploaded:
    146.9 GB
    Downloaded:
    107.6 GB
    Ratio:
    1.36
    Thank you MHRHDRG...
     
  4. Dcruz

    Dcruz Member
    DRG LOYAL DRG FAN

    Joined:
    Jul 23, 2016
    Messages:
    230
    Likes Received:
    2
    Uploaded:
    89.7 GB
    Downloaded:
    80 GB
    Ratio:
    1.12
    Thanks for sharing
     
  5. Sumesh

    Sumesh Member
    DRG LOYAL DRG FAN

    Joined:
    Sep 6, 2016
    Messages:
    365
    Likes Received:
    8
    Uploaded:
    81.3 GB
    Downloaded:
    62.8 GB
    Ratio:
    1.29
    Thx for the share MBRHDRG
     
  6. SKumar2008

    SKumar2008 Member
    DRG LOYAL DRG FAN

    Joined:
    May 18, 2017
    Messages:
    423
    Likes Received:
    4
    Uploaded:
    171.2 GB
    Downloaded:
    254.9 GB
    Ratio:
    0.67
    Thanks for the share bro
     
  7. lechu

    lechu Member
    DRG LOYAL DRG FAN

    Joined:
    Jun 13, 2017
    Messages:
    328
    Likes Received:
    20
    Uploaded:
    1.2 TB
    Downloaded:
    188.7 GB
    Ratio:
    6.47
    thanx deAR for the awesome share
     
  8. Matt

    Matt Member
    DRG LOYAL DRG FAN

    Joined:
    Sep 17, 2016
    Messages:
    220
    Likes Received:
    5
    Uploaded:
    365.4 GB
    Downloaded:
    171.1 GB
    Ratio:
    2.14
    Thanx a lot!!!
     
  9. spanco

    spanco Member
    DRG LOYAL DRG FAN

    Joined:
    Oct 1, 2016
    Messages:
    243
    Likes Received:
    1
    Uploaded:
    333.8 GB
    Downloaded:
    178.3 GB
    Ratio:
    1.87
    Thanks for the share
     
  10. prajinz

    prajinz Member
    DRG LOYAL DRG FAN

    Joined:
    Sep 12, 2016
    Messages:
    326
    Likes Received:
    6
    Uploaded:
    151.9 GB
    Downloaded:
    188.4 GB
    Ratio:
    0.81
    thanks for the movie
     
  11. Krishna-Appu

    Krishna-Appu Member
    DRG LOYAL DRG FAN

    Joined:
    Jul 23, 2016
    Messages:
    430
    Likes Received:
    8
    Uploaded:
    169.9 GB
    Downloaded:
    228.3 GB
    Ratio:
    0.74
    Thanks for the share.
     
  12. Naithik PV

    Naithik PV Well-Known Member
    DRG LOYAL DRG FAN

    Joined:
    Nov 3, 2017
    Messages:
    264
    Likes Received:
    57
    Uploaded:
    302.3 GB
    Downloaded:
    167.2 GB
    Ratio:
    1.81
    Thanks for the share
     
  13. Pokkiri Raja

    Pokkiri Raja Member

    Joined:
    Sep 3, 2018
    Messages:
    47
    Likes Received:
    0
    Uploaded:
    2.5 GB
    Downloaded:
    9 GB
    Ratio:
    0.28
    Superbbb broii
     
  14. Samwise

    Samwise Member
    DRG LOYAL DRG FAN

    Joined:
    Sep 13, 2016
    Messages:
    115
    Likes Received:
    1
    Uploaded:
    6.6 TB
    Downloaded:
    62.2 GB
    Ratio:
    108.27
    Thanks for the movie!!
     

Share This Page

Movie information in first post provided by The Movie Database