1. WE ARE MOVING: DESIRELEASERS.COM CLOSING SOON. WE ARE MOVING TO A NEW AND IMPROVED SITE. https://desireleasers.be/login USE THE SAME USER NAME AND PASS TO LOGIN. IF YOU FIND DIFFICULTY TO LOGIN RESET THE PASS AND CHECK YOUR EMAIL SPAM FOLDER. SEE YOU THERE

  2. BONUS SYSTEM: USE OUR BONUS SYSTEM TO BUY UPLOAD CREDIT. SEED YOUR TORRENTS AS LONG AS POSSIBLE AND GET BONUS POINTS

    Dismiss Notice
  1. MBRHDRG

    MBRHDRG Well-Known Member
    DRG LOYAL Desi Uploader DRG FAN

    Joined:
    May 20, 2016
    Messages:
    686
    Likes Received:
    514
    Uploaded:
    32.2 TB
    Downloaded:
    544 GB
    Ratio:
    60.61
    Rating: 4.00/5 - 1 Vote
    [​IMG]
    Title: Enthiran (2010)

    Tagline: Love, hate, and betrayal between the creator and his creation

    Genre: Action, Comedy, Drama, Romance, Science Fiction

    Director: S. Shankar

    Cast: Rajinikanth, Aishwarya Rai Bachchan, Danny Denzongpa, Santhanam, Karunas, Devadarshini, Sabu Cyril, Kalabhavan Mani, Cochin Haneefa, Baby Shriya Sharma, Sugunthan, Delhi Kumar, Chaams

    Release Date:

    Runtime: 155

    Plot: Dr. Vasi (Rajnikanth) invents a super-powered robot, Chitti, in his own image. The scientific body, AIRD, that must approve the robot, declines it based on its not having emotions and the ability to make rational judgment. A sudden flash of lightning evokes emotions in the robot, and Chitti is seemingly ready for integration into the human world. Then, Chitti falls in love with Dr. Vasi's fiancée Sana (Aishwarya Rai) and turns on his creator.




    Format : Matroska
    Format version : Version 2
    File size : 1.99 GiB
    Duration : 2 h 56 min
    Overall bit rate : 1 618 kb/s
    Video
    ID : 1
    Format : AVC
    Format/Info : Advanced Video Codec
    Format profile : [email protected]
    Format settings, CABAC : Yes
    Format settings, ReFrames : 4 frames
    Codec ID : V_MPEG4/ISO/AVC
    Duration : 2 h 56 min
    Bit rate : 1 360 kb/s
    Width : 1 920 pixels
    Height : 816 pixels
    Display aspect ratio : 2.35:1
    Frame rate mode : Constant
    Frame rate : 23.976 (24000/1001) FPS
    Color space : YUV
    Chroma subsampling : 4:2:0
    Bit depth : 8 bits
    Scan type : Progressive
    Bits/(Pixel*Frame) : 0.036
    Stream size : 1.68 GiB (84%)
    Audio
    ID : 2
    Format : AAC
    Format/Info : Advanced Audio Codec
    Format profile : LC
    Codec ID : A_AAC
    Duration : 2 h 56 min
    Bit rate : 256 kb/s
    Channel(s) : 6 channels
    Channel positions : Front: L C R, Side: L R, LFE
    Sampling rate : 48.0 kHz
    Frame rate : 46.875 FPS (1024 spf)
    Compression mode : Lossy
    Delay relative to video : 9 ms
    Stream size : 323 MiB (16%)
    Title : MBRHDRG
    Language : Tamil
    Default : Yes
    Forced : No

    [​IMG]
    [​IMG]
    [​IMG]
    [​IMG]
    [​IMG]
    [​IMG]
     
    Endhiran (2010) Tamil BRRip 1080p x264 AAC 5.1 E-Sub-MBRHDRG.torrent
    (160 KB, 240 Views, Size: 2 GB, Seeders: 2, Leechers: 0, completed: 92) Freeleech
    • Created With:
      ruTorrent (PHP Class - Adrien Gibrat)
      Comment:
      No comment for this torrent
      Peers:
      2 seeders + 0 leechers = 2 peers
      Last Announce:
      Feb 18, 2019
    • Loading...
  2. sheik

    sheik Member

    Joined:
    Jan 9, 2017
    Messages:
    138
    Likes Received:
    1
    Uploaded:
    2.1 GB
    Downloaded:
    14.5 GB
    Ratio:
    0.14
    Thank you for sharing
     
  3. Waiting for the Past 7 years.....
     
    sulfikar likes this.
  4. sulfikar

    sulfikar Guest

    superb DA macha
     
  5. Shavin

    Shavin Member
    DRG LOYAL DRG FAN

    Joined:
    Jul 27, 2016
    Messages:
    194
    Likes Received:
    2
    Uploaded:
    1,019.7 GB
    Downloaded:
    82.1 GB
    Ratio:
    12.42
    Searching for a long time.
    But seed needed as the download speed is below 30 KBps
     
    #5 Shavin, Jan 16, 2017
    Last edited: Jan 16, 2017
  6. ponnarasu

    ponnarasu Guest

    thank uuuuuuuuuuuuu
     
  7. vjv

    vjv Member
    DRG LOYAL DRG FAN

    Joined:
    Jul 23, 2016
    Messages:
    390
    Likes Received:
    3
    Uploaded:
    506.2 GB
    Downloaded:
    276.8 GB
    Ratio:
    1.83
    thanks for the release
     
  8. rejin

    rejin Active Member
    DRG LOYAL DRG FAN

    Joined:
    Dec 7, 2016
    Messages:
    266
    Likes Received:
    8
    Uploaded:
    1.2 TB
    Downloaded:
    77.3 GB
    Ratio:
    15.46
    super broo thanks for a lot
     
  9. Matt

    Matt Member
    DRG LOYAL DRG FAN

    Joined:
    Sep 17, 2016
    Messages:
    220
    Likes Received:
    5
    Uploaded:
    365.4 GB
    Downloaded:
    171.1 GB
    Ratio:
    2.14
    Thanx a lot!!!
     
  10. x264

    x264 Member

    Joined:
    Sep 26, 2016
    Messages:
    175
    Likes Received:
    2
    Uploaded:
    285.5 GB
    Downloaded:
    155.3 GB
    Ratio:
    1.84
    thank you......................
     
  11. rajappan

    rajappan Guest

    thank you very much
     
  12. manukk@360

    DRG LOYAL DRG FAN

    Joined:
    Nov 21, 2016
    Messages:
    161
    Likes Received:
    7
    Uploaded:
    12.8 GB
    Downloaded:
    75.3 GB
    Ratio:
    0.17
    Thank you very much
     
  13. arun_dsm

    arun_dsm Guest

    Gud share desireleasers
     
  14. abin j

    abin j Well-Known Member
    DRG LOYAL DRG FAN

    Joined:
    Aug 13, 2016
    Messages:
    171
    Likes Received:
    3
    Uploaded:
    637.2 GB
    Downloaded:
    532.2 GB
    Ratio:
    1.20
    thanks man
     
  15. Xenomorph890

    Xenomorph890 Guest

    Thank you for the exclusive....
     
  16. Akhilesh A

    Akhilesh A Guest

    Thanks for sharing
     
  17. govind

    govind DRG FAN
    DRG FAN

    Joined:
    Jul 17, 2016
    Messages:
    112
    Likes Received:
    0
    Uploaded:
    9.5 GB
    Downloaded:
    46.6 GB
    Ratio:
    0.20
    Thank you for sharing
     
  18. Sriram BS

    Sriram BS Guest

    Thanks for the share
     
  19. Good Work......
     

Share This Page

Movie information in first post provided by The Movie Database