1. WE ARE MOVING: DESIRELEASERS.COM CLOSING SOON. WE ARE MOVING TO A NEW AND IMPROVED SITE. https://desireleasers.be/login USE THE SAME USER NAME AND PASS TO LOGIN. IF YOU FIND DIFFICULTY TO LOGIN RESET THE PASS AND CHECK YOUR EMAIL SPAM FOLDER. SEE YOU THERE

  2. BONUS SYSTEM: USE OUR BONUS SYSTEM TO BUY UPLOAD CREDIT. SEED YOUR TORRENTS AS LONG AS POSSIBLE AND GET BONUS POINTS

    Dismiss Notice

Eedo Rakam Ado Rakam (2016) [telugu - 720p - Dvdrip - H264 - Dd 5.1 - 2gb] - Maze

Discussion in 'DVD-RIPS' started by DR MAZE, Sep 5, 2017.

  1. DR MAZE

    DR MAZE Active Member
    DRG LOYAL Uploader

    Joined:
    Oct 2, 2016
    Messages:
    198
    Likes Received:
    0
    Uploaded:
    18.6 TB
    Downloaded:
    0 bytes
    Ratio:
    -
    [​IMG]
    Title: Eedo Rakam Aado Rakam (2016)

    Genre: Romance, Comedy

    Director: G. Nageswara Reddy

    Cast: Vishnu Manchu, Raj Tarun, Hebah Patel, Sonarika Bhadoria, Rajendra Prasad, Posani Krishna Murali, Ravi Babu, Abhimanyu Singh, Vennela Kishore, Thagubothu Ramesh

    Release Date:

    Runtime: 129

    Plot: What happens when the lives of two friends take an unexpected turn? A whole lot of confusion follows! Will they be able to get out of the mess? That forms the crux of the story.





    [​IMG]

    Eedo Rakam Ado Rakam (2016) [TELUGU - 720p - DvDRiP - H264 - DD 5.1 - 2GB] - MAZE

    [​IMG]
    [​IMG]
    [​IMG]
    [​IMG]
    [​IMG]
    [​IMG]
    [​IMG]
    [​IMG]

    General
    Unique ID : 221479605735771468186959581446451960668 (0xA69F6BA44CA681368B22D429A6FB1B5C)
    Complete name : Eedo Rakam Ado Rakam (2016) [TELUGU - 720p - DvDRiP - H264 - DD 5.1 - 2GB] - MAZE.mkv
    Format : Matroska
    Format version : Version 4 / Version 2
    File size : 1.95 GiB
    Duration : 2 h 6 min
    Overall bit rate : 2 203 kb/s
    Movie name : MAZE HDRelease
    Encoded date : UTC 2017-09-05 00:48:44
    Writing application : mkvmerge v15.0.0 ('Duel with the Devil') 64-bit
    Writing library : libebml v1.3.5 + libmatroska v1.4.5
    Attachments : Eedo.jpg

    Video
    ID : 1
    Format : AVC
    Format/Info : Advanced Video Codec
    Format profile : [email protected]
    Format settings, CABAC : Yes
    Format settings, RefFrames : 4 frames
    Codec ID : V_MPEG4/ISO/AVC
    Duration : 2 h 6 min
    Bit rate : 1 753 kb/s
    Width : 1 280 pixels
    Height : 544 pixels
    Display aspect ratio : 2.35:1
    Frame rate mode : Constant
    Frame rate : 23.976 (24000/1001) FPS
    Color space : YUV
    Chroma subsampling : 4:2:0
    Bit depth : 8 bits
    Scan type : Progressive
    Bits/(Pixel*Frame) : 0.105
    Stream size : 1.55 GiB (80%)
    Title : MAZE HDRelease
    Writing library : x264 core 148 r2744 b97ae06
    Language : Telugu
    Default : Yes
    Forced : No

    Audio
    ID : 2
    Format : AC-3
    Format/Info : Audio Coding 3
    Format settings, Endianness : Big
    Codec ID : A_AC3
    Duration : 2 h 6 min
    Bit rate mode : Constant
    Bit rate : 448 kb/s
    Channel(s) : 6 channels
    Channel positions : Front: L C R, Side: L R, LFE
    Sampling rate : 48.0 kHz
    Frame rate : 31.250 FPS (1536 SPF)
    Bit depth : 16 bits
    Compression mode : Lossy
    Delay relative to video : 6 ms
    Stream size : 406 MiB (20%)
    Title : MAZE HDRelease
    Language : Telugu
    Service kind : Complete Main
    Default : Yes
    Forced : No

    Menu
    00:00:00.000 : en:Chapter 01
    00:00:00.400 : en:Chapter 02
    00:00:33.067 : en:Chapter 03

    Source Credits to Captain America [DT]

     
    Eedo Rakam Ado Rakam (2016) [TELUGU - 720p - DvDRiP - H264 - DD 5.1 - 2GB] - MAZE.torrent
    (20 KB, 17 Views, Size: 2 GB, Seeders: 0, Leechers: 0, completed: 0) Freeleech
    • Created With:
      BitTorrent/7.10
      Comment:
      MAZE HDRelease
      Peers:
      0 seeders + 0 leechers = 0 peers
      Last Announce:
      Dec 23, 2018
    • Loading...
    #1 DR MAZE, Sep 5, 2017
    Last edited by a moderator: Oct 21, 2017
  2. praveen_774

    praveen_774 Member

    Joined:
    Nov 15, 2017
    Messages:
    60
    Likes Received:
    0
    Uploaded:
    3 GB
    Downloaded:
    41.4 GB
    Ratio:
    0.07
    gud movie...
     
  3. Sanjay Kumar

    Sanjay Kumar Member

    Joined:
    Aug 12, 2018
    Messages:
    54
    Likes Received:
    0
    Uploaded:
    2 GB
    Downloaded:
    0 bytes
    Ratio:
    -
    super bro love you
     
  4. Sanjay Kumar

    Sanjay Kumar Member

    Joined:
    Aug 12, 2018
    Messages:
    54
    Likes Received:
    0
    Uploaded:
    2 GB
    Downloaded:
    0 bytes
    Ratio:
    -
    please reseed.there is no seeders.how to download it bro.please reseed.
     
  5. nishaal

    nishaal New Member

    Joined:
    Sep 1, 2018
    Messages:
    17
    Likes Received:
    0
    Uploaded:
    3.3 GB
    Downloaded:
    27.6 GB
    Ratio:
    0.12
    very nice share
     
  6. Sanjay Kumar

    Sanjay Kumar Member

    Joined:
    Aug 12, 2018
    Messages:
    54
    Likes Received:
    0
    Uploaded:
    2 GB
    Downloaded:
    0 bytes
    Ratio:
    -
    Hii Nishal in this movie there is no seeders.but why you are say thanks.i don't know.how it is download this movie.just tell me.
     
  7. sarath.ga

    sarath.ga Member
    DRG LOYAL DRG FAN

    Joined:
    Dec 6, 2017
    Messages:
    158
    Likes Received:
    6
    Uploaded:
    358.7 GB
    Downloaded:
    35.2 GB
    Ratio:
    10.19
    Thanks for the share
     
  8. guy.giggling

    guy.giggling New Member

    Joined:
    Nov 5, 2018
    Messages:
    3
    Likes Received:
    0
    Uploaded:
    2 GB
    Downloaded:
    0 bytes
    Ratio:
    -
    Thanks buddy
     

Share This Page

Movie information in first post provided by The Movie Database