1. WE ARE MOVING: DESIRELEASERS.COM CLOSING SOON. WE ARE MOVING TO A NEW AND IMPROVED SITE. https://desireleasers.be/login USE THE SAME USER NAME AND PASS TO LOGIN. IF YOU FIND DIFFICULTY TO LOGIN RESET THE PASS AND CHECK YOUR EMAIL SPAM FOLDER. SEE YOU THERE

  2. BONUS SYSTEM: USE OUR BONUS SYSTEM TO BUY UPLOAD CREDIT. SEED YOUR TORRENTS AS LONG AS POSSIBLE AND GET BONUS POINTS

    Dismiss Notice

Dora (2017) [telugu - 720p - Web-hdrip - H264 - Aac - 2gb] - Maze

Discussion in 'Bluray/HD Rip' started by DR MAZE, Sep 13, 2017.

  1. DR MAZE

    DR MAZE Active Member
    DRG LOYAL Uploader

    Joined:
    Oct 2, 2016
    Messages:
    198
    Likes Received:
    0
    Uploaded:
    18.6 TB
    Downloaded:
    0 bytes
    Ratio:
    -
    [​IMG]
    Title: Dora (2017)

    Genre: Horror, Thriller

    Director: Dass Ramasamy

    Cast: Nayanthara, Thambi Ramaiah, Harish Uthaman, Tarun Shatriya

    Release Date:

    Runtime: 129

    Plot: A father and a daughter buy a used car which is possessed by an unknown spirit which yearns for revenge, and gives sleepless nights to a cop and a bunch of criminals.




    [​IMG]


    Dora (2017) [TELUGU - 720p - WEB-HDRip - H264 - AAC - 2GB] - MAZE



    [​IMG]
    [​IMG]
    [​IMG]
    [​IMG]
    [​IMG]
    [​IMG]
    [​IMG]
    [​IMG]
    [​IMG]
    [​IMG]

    General
    Unique ID : 189090650897392010197146415020511222056 (0x8E4188E0926B6F698FC3340BE98E5928)
    Complete name : Dora (2017) [TELUGU - 720p - WEB-HDRip - H264 - AAC - 2GB] - MAZE.mkv
    Format : Matroska
    Format version : Version 4 / Version 2
    File size : 1.95 GiB
    Duration : 2 h 17 min
    Overall bit rate : 2 027 kb/s
    Movie name : MAZE HDRelease
    Encoded date : UTC 2017-09-13 00:26:29
    Writing application : mkvmerge v15.0.0 ('Duel with the Devil') 64-bit
    Writing library : libebml v1.3.5 + libmatroska v1.4.5
    Attachments : Dora.jpg

    Video
    ID : 1
    Format : AVC
    Format/Info : Advanced Video Codec
    Format profile : [email protected]
    Format settings, CABAC : Yes
    Format settings, RefFrames : 4 frames
    Codec ID : V_MPEG4/ISO/AVC
    Duration : 2 h 17 min
    Bit rate : 1 895 kb/s
    Width : 1 280 pixels
    Height : 544 pixels
    Display aspect ratio : 2.35:1
    Frame rate mode : Constant
    Frame rate : 25.000 FPS
    Color space : YUV
    Chroma subsampling : 4:2:0
    Bit depth : 8 bits
    Scan type : Progressive
    Bits/(Pixel*Frame) : 0.109
    Stream size : 1.83 GiB (93%)
    Title : MAZE HDRelease
    Writing library : x264 core 148 r2744 b97ae06
    Language : Telugu
    Default : Yes
    Forced : No

    Audio
    ID : 2
    Format : AAC
    Format/Info : Advanced Audio Codec
    Format profile : LC
    Codec ID : A_AAC
    Duration : 2 h 17 min
    Bit rate : 129 kb/s
    Channel(s) : 2 channels
    Channel positions : Front: L R
    Sampling rate : 48.0 kHz
    Frame rate : 46.875 FPS (1024 SPF)
    Compression mode : Lossy
    Stream size : 127 MiB (6%)
    Title : MAZE HDRelease
    Language : Telugu
    Default : Yes
    Forced : No





    Thanks to TheDon
     
    Dora (2017) [TELUGU - 720p - WEB-HDRip - H264 - AAC - 2GB] - MAZE.torrent
    (20 KB, 5 Views, Size: 2 GB, Seeders: 0, Leechers: 0, completed: 1) Freeleech
    • Created With:
      BitTorrent/7.10
      Comment:
      MAZE HDRelease
      Peers:
      0 seeders + 0 leechers = 0 peers
      Last Announce:
      Jan 12, 2018
    • Loading...
    #1 DR MAZE, Sep 13, 2017
    Last edited by a moderator: Sep 13, 2017
  2. laci9

    laci9 DRG FAN
    DRG FAN

    Joined:
    Sep 16, 2016
    Messages:
    35
    Likes Received:
    0
    Uploaded:
    664.5 GB
    Downloaded:
    27.3 GB
    Ratio:
    24.36
    Thank you very!
     
  3. vin_pvk

    vin_pvk New Member

    Joined:
    Jun 24, 2018
    Messages:
    28
    Likes Received:
    0
    Uploaded:
    2 GB
    Downloaded:
    0 bytes
    Ratio:
    -
    thanks pls seed
     

Share This Page

Movie information in first post provided by The Movie Database